www.neformat.com.ua


Новости Статьи Рецензии Ивенты Форум Facebook Telegram Twitter YouTube Instagram Mixcloud SoundCloud
Переключить в мобильный режим
Вернуться   Форум www.neformat.com.ua > Main > Hardware & Software, Tech & Devices

Hardware & Software, Tech & Devices Раздел о компьютерной технике и комплектующих; программах, веб-сервисах и их настройке; плеерах, планшетах, телефонах и других устройствах

Ответ
Опции темы Поиск в этой теме
Непрочитано 07.10.2012, 20:54   #1
of doom
+/- Информация
Репутация: 1245
пацаны проблема

перехожу на лоси, столкнулся с проблемой:

ни один из файлов .cue не запускается в фубаре. выдаёт треклист, а при запуске треков выдаёт ошибку.

при попытке открыть файл Демон тулзом - - тоже выдаёт ошибку.

что я делаю неправильно?

Добавлено через 12 минут
демон выдаёт: невозможно замонтировать образ нет доступа к файлу
Blacksmith вне форума   Ответить с цитированием
Непрочитано 07.10.2012, 20:56   #2
...он полон звезд!
+/- Информация
Репутация: 1175
Re: пацаны проблема

в теме про фубар на форуме есть ответ
walk вне форума   Ответить с цитированием
Непрочитано 07.10.2012, 21:00   #3
of doom
+/- Информация
Репутация: 1245
Re: пацаны проблема

walk, дай-ка ссылку мне тогда
Blacksmith вне форума   Ответить с цитированием
Непрочитано 07.10.2012, 21:02   #4
...он полон звезд!
+/- Информация
Репутация: 1175
Re: пацаны проблема

вот, к примеру в

cue

REM GENRE Rock
REM DATE 2007
REM DISCID A107C40B
REM COMMENT "ExactAudioCopy v0.99pb3"
PERFORMER "Eddie Vedder"
TITLE "Into The Wild (Music from the Motion Picture)"
FILE "Eddie Vedder - Into The Wild (Music from the Motion Picture).wav" WAVE
TRACK 01 AUDIO
TITLE "Setting Forth"
PERFORMER "Eddie Vedder"
INDEX 01 00:00:00
TRACK 02 AUDIO
TITLE "No Ceiling"
PERFORMER "Eddie Vedder"
INDEX 01 01:37:65
TRACK 03 AUDIO
TITLE "Far Behind"
PERFORMER "Eddie Vedder"
INDEX 01 03:11:69
TRACK 04 AUDIO
TITLE "Rise"
PERFORMER "Eddie Vedder"
INDEX 01 05:27:18
TRACK 05 AUDIO
TITLE "Long Nights"
PERFORMER "Eddie Vedder"
INDEX 01 08:03:52
TRACK 06 AUDIO
TITLE "Tuolumne"
PERFORMER "Eddie Vedder"
INDEX 01 10:35:35
TRACK 07 AUDIO
TITLE "Hard Sun"
PERFORMER "Eddie Vedder"
INDEX 01 11:35:58
TRACK 08 AUDIO
TITLE "Society"
PERFORMER "Eddie Vedder"
INDEX 00 16:57:46
INDEX 01 16:57:64
TRACK 09 AUDIO
TITLE "The Wolf"
PERFORMER "Eddie Vedder"
INDEX 00 20:54:11
INDEX 01 20:54:12
TRACK 10 AUDIO
TITLE "End Of The Road"
PERFORMER "Eddie Vedder"
INDEX 00 22:26:33
INDEX 01 22:26:35
TRACK 11 AUDIO
TITLE "Guaranteed"
PERFORMER "Eddie Vedder"
INDEX 00 25:45:68
INDEX 01 25:46:26
[свернуть]


в строчке
FILE "Eddie Vedder - Into The Wild (Music from the Motion Picture).wav"
вместо wav напиши ape
walk вне форума   Ответить с цитированием
Непрочитано 07.10.2012, 21:12   #5
of doom
+/- Информация
Репутация: 1245
Re: пацаны проблема

ну не знаю, не могут же быть ошибки ВО ВСЕХ .cue файлах от разных авторов. или может?

Добавлено через 3 минуты
тем более что отказываются открываться .cue не только к APE-ам, но и ко FLAC-ам.
Blacksmith вне форума   Ответить с цитированием
Непрочитано 07.10.2012, 21:13   #6
...он полон звезд!
+/- Информация
Репутация: 1175
Re: пацаны проблема

Blacksmith, после исправления запустилось?


Цитата:
Сообщение от Blacksmith Посмотреть сообщение
ну не знаю, не могут же быть ошибки ВО ВСЕХ .cue файлах от разных авторов. или может?
я несколько ФЛАКов таким образом отредактировал.
но долго фубаром не пользовался, но новый ноут так и не поставил
walk вне форума   Ответить с цитированием
Непрочитано 07.10.2012, 21:16   #7
of doom
+/- Информация
Репутация: 1245
Re: пацаны проблема

Цитата:
Сообщение от walk Посмотреть сообщение
после исправления запустилось?
так а что исправлять? у меня где АРЕ - там аре, а где флак - там флак. имена файлов, к которым пишется .куе тоже проставлены корректно вроде
Blacksmith вне форума   Ответить с цитированием
Непрочитано 07.10.2012, 21:18   #8
...он полон звезд!
+/- Информация
Репутация: 1175
Re: пацаны проблема

у меня там где "аре" запускалось
walk вне форума   Ответить с цитированием
Непрочитано 07.10.2012, 22:59   #9
of doom
+/- Информация
Репутация: 1245
Re: пацаны проблема

Цитата:
Сообщение от walk Посмотреть сообщение
у меня там где "аре" запускалось
ради смеха попробовал - нет, не запускается

Добавлено через 1 час 33 минуты
короче я разобрался вроде
Blacksmith вне форума   Ответить с цитированием
Ответ
Форум www.neformat.com.ua > Main > Hardware & Software, Tech & Devices

Опции темы Поиск в этой теме
Поиск в этой теме:

Расширенный поиск

Похожие темы
Тема Автор Раздел Ответов Последнее сообщение
Пацаны проблема wanchope Hardware & Software, Tech & Devices 30 11.05.2016 12:59

Ваши права в разделе
Вы не можете создавать новые темы
Вы не можете отвечать в темах
Вы не можете прикреплять вложения
Вы не можете редактировать свои сообщения

BB коды Вкл.
Смайлы Вкл.
[IMG] код Вкл.
HTML код Выкл.


   
 
Текущее время: 07:49. Часовой пояс GMT +3.
Powered by vBulletin® Version 3.8.7
Copyright ©2000 - 2021, vBulletin Solutions, Inc.
Перевод: zCarot
НовостиСтатьиРецензии
ИвентыКонтактыФорум


Facebook Telegram Twitter YouTube Instagram Mixcloud SoundCloud

Designed by LaBIZz
Все материалы, размещенные на этом сайте, распространяются на условиях
Creative Commons Attribution-Share Alike 3.0 License.

© 2004-2019 Neformat Ukraine